<?xml version="1.0" standalone="no"?>
<!DOCTYPE svg PUBLIC "-//W3C//DTD SVG 1.1//EN" "http://www.w3.org/Graphics/SVG/1.1/DTD/svg11.dtd" >
<svg xmlns="http://www.w3.org/2000/svg">
<metadata>Generated by IcoMoon</metadata>
<defs>
<font id="inv" horiz-adv-x="1024">
<font-face units-per-em="1024" ascent="960" descent="-64" />
<missing-glyph horiz-adv-x="1024" />
<glyph unicode="&#x20;" horiz-adv-x="512" d="" />
<glyph unicode="&#xe900;" glyph-name="backpack" d="M932.001 358h91.999v-362h-91.999v362zM752 960h-120.001v-79.688c43.366-12.96 83.731-32.758 120.001-58.128v137.816zM392.001 960h-120.001v-137.816c36.271 25.372 76.635 45.168 120.001 58.128v79.688zM0 358h92v-362h-92v362zM302.001 358h419.998v-59.999h-419.998v59.999zM721.999 238.001h-59.999v-60.002h-59.999v60.002h-299.999v-120.001h419.998v120.001zM872.001 478.001c0 198.824-161.178 359.999-360.001 359.999s-360-161.176-360-359.999v-542.001h720.001v542.001zM512 718.001c123.134 0 230.654-83.263 261.446-202.501l-58.065-14.999c-23.966 92.723-107.608 157.498-203.38 157.498s-179.414-64.775-203.378-157.498l-58.065 14.999c30.79 119.238 138.31 202.501 261.443 202.501zM782.001 58h-540.002v359.999h540.002v-359.999z" />
<glyph unicode="&#xe901;" glyph-name="car" d="M109.843 612.806l-10.708-34.479 250.822-76.428c9.109-9.777 21.462-15.269 34.344-15.269h255.348c12.881 0 25.237 5.492 34.344 15.269l249.814 76.428-10.291 36.147c-75.092 28.474-283.457 81.147-401.527 81.147-118.028 0-326.987-54.351-402.146-82.816zM475.548 564.827c-6.707 0-12.144-5.834-12.144-13.033s5.437-13.033 12.144-13.033h72.855c6.705 0 12.141 5.834 12.141 13.033s-5.437 13.033-12.141 13.033h-72.855zM1003.618 563.005c12.544-14.625 20.382-35.093 20.382-57.872l-21.867-228.424c0-22.246-7.382-42.417-19.398-57v-33.050c0-35.605-26.801-64.477-59.969-64.477h-54.924c-33.231 0-60.034 28.872-60.034 64.477v9.421h-591.616v-9.421c0-35.605-26.824-64.477-59.991-64.477h-54.946c-33.189 0-59.991 28.872-59.991 64.477v33.050c-11.994 14.583-19.398 34.753-19.398 57l-21.866 228.424c0 26.554 10.651 49.901 26.871 64.554 9.517 4.126 18.522 7.631 23.694 8.641 18.662 3.642 48.57 0 48.57 0l10.708 34.479c38.649 95.053 121.353 161.012 217.174 161.012h369.99c95.258 0 177.571-65.189 216.509-159.343l10.291-36.147c0 0 27.415 3.642 44.523 0 7.208-1.534 22.54-8.837 35.288-15.323zM128.901 249.274c22.624 0 40.983 22.591 40.983 50.399 0 27.888-18.38 50.453-40.983 50.453-22.624 0-41.004-22.54-41.004-50.453 0-27.809 18.381-50.399 41.004-50.399zM184.107 402.788c9.115 21.369-13.509 57.93-50.53 81.748-37.021 23.764-74.409 25.733-83.502 4.364-9.093-21.448 13.553-57.984 50.552-81.773 36.999-23.817 74.388-25.733 83.48-4.338zM845.061 585.735h43.564c-31.521 86.723-105.539 147.821-191.642 147.821h-369.99c-86.121 0-160.141-61.098-191.684-147.821h43.579l-11.932-12.807 148.656-159.553c18.216-19.554 42.924-43.571 68.687-43.571h255.348c25.763 0 50.472 24.017 68.689 43.571l148.655 159.553-11.932 12.807zM895.034 249.274c22.623 0 41.004 22.591 41.004 50.399 0 27.888-18.381 50.453-41.004 50.453s-41.048-22.54-41.048-50.453c0-27.809 18.425-50.399 41.048-50.399zM923.373 407.126c36.955 23.71 59.667 60.325 50.53 81.72-9.072 21.343-46.459 19.4-83.503-4.389-36.955-23.71-59.578-60.246-50.486-81.669 9.027-21.367 46.415-19.505 83.458 4.338zM657.685 278.575v52.131h-291.419v-52.131h291.419z" />
<glyph unicode="&#xe902;" glyph-name="close" d="M511.999-64.002c-282.778 0-512 229.222-512 512.002 0 282.776 229.223 511.998 512 511.998s511.998-229.222 511.998-511.998c0-282.78-229.222-512.002-511.998-512.002zM511.999 520.395l-144.793 144.844-72.448-72.448 144.844-144.791-144.844-144.798 72.448-72.45 144.793 144.848 144.793-144.848 72.45 72.45-144.848 144.798 144.848 144.791-72.45 72.448-144.793-144.844z" />
<glyph unicode="&#xe903;" glyph-name="freeze" d="M767.999 960h-511.999c-47.062 0-85.334-38.27-85.334-85.334v-192c0-11.792 9.542-21.334 21.334-21.334h639.999c11.792 0 21.334 9.542 21.334 21.334v192c0 47.064-38.272 85.334-85.334 85.334zM405.333 746.666h-128c-8.626 0-16.416 5.188-19.708 13.166-3.312 7.98-1.48 17.146 4.626 23.25l21.334 21.334c8.334 8.334 21.834 8.334 30.166 0 4.166-4.166 6.25-9.626 6.25-15.084h85.334c11.792 0 21.334-9.542 21.334-21.334s-9.544-21.332-21.336-21.332zM831.998 618.667h-639.999c-11.792 0-21.334-9.544-21.334-21.334v-533.333c0-47.060 38.27-85.332 85.334-85.332v-21.334c0-11.792 9.542-21.334 21.334-21.334h42.666c11.792 0 21.334 9.542 21.334 21.334v21.334h341.333v-21.334c0-11.792 9.542-21.334 21.334-21.334h42.666c11.792 0 21.334 9.542 21.334 21.334v21.334c47.062 0 85.334 38.27 85.334 85.332v533.333c-0.002 11.79-9.544 21.334-21.336 21.334zM405.333 490.667h-128c-8.626 0-16.416 5.187-19.708 13.165-3.312 7.98-1.48 17.145 4.626 23.249l21.334 21.334c8.334 8.334 21.834 8.334 30.166 0 4.166-4.166 6.25-9.626 6.25-15.083h85.334c11.792 0 21.334-9.544 21.334-21.334 0-11.792-9.544-21.332-21.336-21.332z" />
<glyph unicode="&#xe904;" glyph-name="home" d="M512 654.081l-352.213-271.018v-363.099h283.014v266.091h150.351v-266.091h271.062v363.099l-352.214 271.018zM878.964 593.735v185.65h-148.333v-71.539l-218.631 168.189-512-393.874 70.678-91.871 441.322 339.586 441.323-339.588 70.677 91.871-145.036 111.576z" />
<glyph unicode="&#xe905;" glyph-name="key" horiz-adv-x="745" d="M611.659 457.801l7.308 7.305c49.452 49.566 68.736 121.74 50.593 189.37-13.17 50.262-45.966 93.137-91.034 118.999-11.385 6.507-23.382 11.874-35.812 16.040l-8.906 30.106c-26.722 86.578-82.125 140.379-144.477 140.379-61.466 0-116.51-52.557-143.232-136.995-2.672-8.377-4.985-16.745-6.949-25.122-97.435-12.909-170.295-95.894-170.486-194.181-0.217-52.017 20.451-101.949 57.368-138.596l7.124-7.305-36.169-135.752 35.456-90.857-69.302-53.62 34.386-76.965-76.966-63.239-5.515-20.843 70.72-80.524 101.366 34.385 120.076 441.807 9.795 2.669c92.302 25.558 152.583 114.111 142.511 209.343-10.065 95.241-87.526 169.233-183.124 174.931 1.243 4.271 2.313 8.725 3.556 13.005 21.739 68.224 64.675 112.23 109.386 112.23 45.424 0 88.718-45.251 110.273-115.083l3.209-10.865c-24.539 2.775-49.382 0.905-73.225-5.524-7.445-1.983-14.762-4.419-21.911-7.307 31.071-24.513 55.401-56.507 70.728-92.988 32.133 0.817 62.206-15.798 78.611-43.441 16.414-27.646 16.598-61.996 0.486-89.823-11.674-20.564-31.123-35.586-53.974-41.684-7.619-2.001-15.467-3.018-23.338-3.028-0.54 0-1.254 0.175-1.785 0.175-15.309-36.492-39.647-68.494-70.728-92.989 7.194-2.977 14.578-5.471 22.095-7.482l9.977-2.853 36.161-135.568 76.251-60.751-33.14-81.054 68.231-49.704-34.916-93.172 5.525-20.843 101.364-34.385 70.728 80.524-118.293 441.277zM112.13-30.326l-34.203 9.265 119.894 441.274 34.203-9.265-119.893-441.274zM264.8 514.628c-7.873 0.044-15.709 1.061-23.331 3.028-47.415 12.935-75.503 61.708-62.89 109.203 7.203 26.384 26.113 47.991 51.305 58.612 0.357-4.629 0.539-9.081 0.896-14.075 9.438-54.523 30.192-106.47 60.926-152.488-8.709-2.767-17.771-4.21-26.906-4.28zM280.84 691.178c1.687-0.209 3.358-0.566 4.985-1.071l1.957-0.356c47.416-12.935 75.504-61.71 62.892-109.203-4.671-17.164-14.345-32.542-27.792-44.181-28.288 41.684-47.53 88.839-56.471 138.422-0.54 6.228-1.071 12.109-1.254 17.815 5.264 0.042 10.517-0.435 15.683-1.427zM643.194-28.368l-117.937 440.562 34.56 9.263 117.935-440.56-34.558-9.265z" />
<glyph unicode="&#xe906;" glyph-name="lic-boat" d="M965.321 507.417h-43.25c-10.321 63.517-36.945 122.027-75.672 171.653l30.733 28.969c22.874 21.555 21.485 57.943-3.094 81.111-24.586 23.168-63.202 24.478-86.079 2.923l-30.742-28.968c-52.671 36.492-114.764 61.581-182.164 71.306v40.755c0 30.492-28.29 55.295-63.054 55.295s-63.054-24.802-63.054-55.295v-40.755c-67.398-9.725-129.493-34.814-182.164-71.306l-30.742 28.968c-22.876 21.548-61.493 20.238-86.079-2.923-24.578-23.168-25.977-59.556-3.094-81.111l30.734-28.969c-38.727-49.627-65.352-108.136-75.672-171.653h-43.258c-32.351 0-58.672-26.649-58.672-59.417s26.321-59.417 58.672-59.417h43.258c10.32-63.517 36.945-122.027 75.672-171.653l-30.742-28.969c-22.874-21.555-21.485-57.944 3.101-81.111 12.875-12.132 29.594-18.265 45.89-18.265 14.821 0 29.289 5.079 40.188 15.343l30.742 28.967c52.663-36.492 114.757-61.582 182.164-71.306v-40.755c0-30.491 28.282-55.294 63.054-55.294 34.765 0 63.054 24.802 63.054 55.294v40.755c67.398 9.724 129.493 34.814 182.164 71.306l30.742-28.967c10.892-10.271 25.368-15.343 40.188-15.343 16.29 0 33.017 6.14 45.883 18.265 24.586 23.166 25.976 59.556 3.101 81.111l-30.733 28.969c38.727 49.627 65.351 108.136 75.672 171.653h43.25c32.359 0 58.679 26.649 58.679 59.417s-26.321 59.417-58.679 59.417zM594.22 477.779c-0.547 1.331-1.126 2.643-1.742 3.939l173.97 163.932c40.805-46.557 67.507-104.472 73.929-167.871h-246.156zM512.001 424.544c-13.728 0-24.891 10.522-24.891 23.456s11.164 23.456 24.891 23.456c13.728 0 24.891-10.522 24.891-23.456s-11.164-23.456-24.891-23.456zM547.782 523.833c-1.375 0.583-2.765 1.126-4.179 1.642v231.954c67.288-6.051 128.743-31.214 178.148-69.665l-173.97-163.932zM480.399 757.43v-231.954c-1.413-0.516-2.804-1.059-4.179-1.642l-173.977 163.932c49.414 38.451 110.868 63.613 178.156 69.665zM257.555 645.65l173.97-163.932c-0.616-1.296-1.196-2.607-1.742-3.939h-246.155c6.422 63.407 33.124 121.314 73.929 167.871zM429.782 418.221c0.547-1.331 1.126-2.643 1.742-3.939l-173.97-163.932c-40.805 46.557-67.507 104.463-73.929 167.871h246.155zM476.22 372.167c1.375-0.583 2.765-1.126 4.179-1.642v-231.955c-67.288 6.051-128.743 31.214-178.156 69.666l173.977 163.932zM543.603 138.569v231.955c1.413 0.516 2.804 1.059 4.179 1.642l173.97-163.932c-49.406-38.451-110.86-63.614-178.148-69.666zM766.447 250.35l-173.97 163.932c0.616 1.296 1.196 2.607 1.742 3.939h246.156c-6.422-63.407-33.124-121.314-73.929-167.871z" />
<glyph unicode="&#xe907;" glyph-name="lic-car" d="M512 930.462c-282.752 0-512-216.023-512-482.462s229.248-482.462 512-482.462c282.752 0 512 216.023 512 482.462s-229.248 482.462-512 482.462zM512 809.846c166.625 0 307.359-101.136 360.513-241.23h-721.025c53.153 140.095 193.887 241.23 360.512 241.23zM512 387.692c-35.359 0-63.999 26.988-63.999 60.308s28.64 60.308 63.999 60.308c35.359 0 63.999-26.988 63.999-60.308s-28.64-60.308-63.999-60.308zM128.001 448c174.879 0 316.513-158.791 319.487-355.726-180.992 29.219-319.487 177.034-319.487 355.726zM576.513 92.274c2.975 196.935 144.608 355.726 319.487 355.726 0-178.692-138.496-326.507-319.487-355.726z" />
<glyph unicode="&#xe908;" glyph-name="lic-drone" d="M638.407 448c0 45.424-27.132 84.98-66.923 105.063 13.527 22.443 25.885 54.138 37.681 95.963 18.062 64.043 29.241 134.127 29.241 162.33 0 65.673-56.7 119.106-126.399 119.106-69.697 0-126.399-53.433-126.399-119.106 0-28.203 11.18-98.287 29.241-162.33 11.796-41.822 24.154-73.519 37.681-95.963-39.788-20.082-66.923-59.636-66.923-105.063s27.134-84.978 66.923-105.061c-13.527-22.441-25.885-54.14-37.681-95.961-18.062-64.045-29.241-134.13-29.241-162.333 0-65.676 56.704-119.107 126.399-119.107s126.399 53.434 126.399 119.107c0 28.203-11.18 98.286-29.241 162.333-11.794 41.821-24.154 73.519-37.681 95.961 39.79 20.082 66.923 59.636 66.923 105.061zM512 567.105c-48.207 0-90.184-25.569-111.494-63.063-23.818 12.747-57.454 24.393-101.839 35.507-67.964 17.020-142.339 27.556-172.269 27.556-69.694 0-126.398-53.431-126.398-119.107 0-65.678 56.704-119.109 126.398-119.109 29.93 0 104.303 10.535 172.269 27.556 44.383 11.116 78.021 22.76 101.839 35.507 21.309-37.494 63.285-63.063 111.494-63.063s90.181 25.569 111.492 63.063c23.816-12.747 57.456-24.391 101.837-35.507 67.966-17.020 142.342-27.556 172.27-27.556 69.699 0 126.401 53.434 126.401 119.109s-56.704 119.107-126.401 119.107c-29.929 0-104.302-10.535-172.27-27.556-44.381-11.113-78.021-22.76-101.837-35.507-21.311 37.494-63.285 63.063-111.492 63.063zM327.566 59.178c-157.554 66.621-267.565 215.839-267.565 388.822 0 15.612-13.432 28.268-30 28.268s-30-12.656-30-28.268c0-128.87 53.258-250.025 149.96-341.153 58.78-55.387 129.346-95.616 206.357-118.678-14.692 20.979-24.737 45.082-28.751 71.009zM798.895 653.659c-37.283 35.072-82.040 60.544-130.885 75.15 9.318-13.287 15.688-28.548 18.236-44.965 99.931-42.185 169.709-136.674 169.709-246.211 0-9.886 8.518-17.9 19.029-17.9 10.508 0 19.027 8.014 19.027 17.9 0 81.605-33.78 158.325-95.114 216.027zM252.802 448c0 15.612-13.432 28.268-29.999 28.268s-30-12.656-30-28.268c0-66.347 22.475-129.262 64.999-181.941 22.857-28.315 51.047-52.598 82.714-71.662 4.155 19.911 8.993 40.237 14.261 59.581-62.639 45.397-101.975 116.779-101.975 194.022zM730.275 553.251c-14.675 17.985-32.776 33.41-53.108 45.517-2.669-12.645-5.775-25.556-9.157-37.843 40.22-28.834 65.475-74.175 65.475-123.239 0-9.917 8.625-17.956 19.263-17.956s19.261 8.039 19.261 17.956c0 42.142-14.43 82.105-41.734 115.565z" />
<glyph unicode="&#xe909;" glyph-name="lic-gun" d="M905.595 476.051c-6.483 81.5-40.96 155.75-94.371 214.238l-63.34-59.688c37.491-42.923 62.057-96.214 68.072-154.553h-115.783c-4.783 28.603-16.776 54.963-34.141 77.42-11.754 15.198-25.972 28.595-42.1 39.672-23.832 16.36-51.806 27.666-82.164 32.173v109.103c61.909-5.67 118.467-28.82 164.015-64.146l63.34 59.689c-62.068 50.33-140.864 82.817-227.355 88.924v111.578h-59.534v-111.578c-86.491-6.106-165.287-38.594-227.355-88.924l63.34-59.689c45.548 35.326 102.106 58.476 164.015 64.146v-109.103c-30.354-4.508-58.333-15.809-82.164-32.173-16.128-11.077-30.342-24.472-42.1-39.672-17.365-22.457-29.358-48.817-34.141-77.42h-115.781c6.016 58.334 30.584 111.629 68.072 154.553l-63.342 59.688c-53.412-58.488-87.888-132.738-94.371-214.238h-118.406v-56.099h118.406c6.483-81.5 40.96-155.75 94.371-214.238l63.34 59.688c-37.486 42.919-62.055 96.214-68.070 154.551h115.783c4.781-28.603 16.778-54.965 34.141-77.422 11.756-15.197 25.972-28.593 42.1-39.67 23.832-16.362 51.808-27.666 82.164-32.173v-109.103c-61.907 5.672-118.465 28.818-164.015 64.144l-63.342-59.686c62.068-50.33 140.864-82.816 227.355-88.923v-111.579h59.534v111.579c86.491 6.106 165.287 38.593 227.355 88.923l-63.34 59.689c-45.548-35.326-102.106-58.476-164.015-64.146v109.103c30.354 4.508 58.333 15.809 82.164 32.173 16.128 11.077 30.342 24.472 42.1 39.672 17.365 22.457 29.358 48.817 34.141 77.42h115.783c-6.018-58.334-30.583-111.629-68.072-154.553l63.34-59.688c53.412 58.488 87.889 132.742 94.371 214.238h118.406v56.099h-118.406zM482.234 380.279v-52.444c-14.12 3.106-27.366 8.354-39.331 15.381-17.042 10.018-31.47 23.613-42.1 39.672-7.461 11.276-13.030 23.758-16.325 37.063h97.757v-39.672zM482.234 515.723v-39.672h-97.757c3.294 13.304 8.867 25.787 16.325 37.063 10.626 16.059 25.059 29.654 42.1 39.672 11.965 7.028 25.212 12.276 39.331 15.381v-52.444zM623.197 382.888c-10.628-16.059-25.059-29.654-42.1-39.672-11.967-7.028-25.214-12.276-39.331-15.381v92.116h97.757c-3.296-13.304-8.865-25.787-16.325-37.063zM583.868 476.051h-42.1v92.116c14.12-3.106 27.366-8.354 39.331-15.381 17.042-10.018 31.47-23.613 42.1-39.672 7.461-11.276 13.030-23.758 16.325-37.063h-55.656z" />
<glyph unicode="&#xe90a;" glyph-name="lic-health" d="M833.825 594.336h-135.032v-146.327h-155.288v-127.244h155.288v-146.327h135.032v146.327h155.288v127.244h-155.288v146.327zM475.991 511.627h155.288v146.327h270.066v-146.327h78.318c28.060 42.413 44.337 90.498 44.337 143.21 0 146.927-126.376 266.061-282.265 266.061-94.72 0-178.534-43.964-229.735-111.431-51.2 67.468-135.015 111.45-229.735 111.45-155.891 0-282.265-119.106-282.265-266.034 0-63.872 23.883-122.476 63.689-168.334l448.311-511.465 119.278 136.083v145.973h-155.288v254.485z" />
<glyph unicode="&#xe90b;" glyph-name="lic-helipad" d="M567.598 232.379v147.557h-110.423v-147.557h-164.034v431.238h164.034v-139.735h110.423v139.735h164.673v-431.238h-164.673zM512.701-34.461c-282.763-0.371-512.318 215.337-512.7 481.8-0.383 266.461 228.521 482.76 511.297 483.122 282.765 0.371 512.318-215.337 512.702-481.8 0.179-128.017-53.638-250.863-149.611-341.48-95.665-90.82-225.893-141.822-361.687-141.641zM512.701 843.35c-231.712 0-419.556-177.006-419.556-395.351s187.844-395.351 419.556-395.351c231.714 0 419.557 177.006 419.557 395.351-0.298 218.234-187.96 395.070-419.557 395.351z" />
<glyph unicode="&#xe90c;" glyph-name="lic-medical" d="M696.666 960h-618.434v-1024h867.536v789.268l-249.102 234.732zM240.825 708.127h69.429v64.589c0 29.054 24.846 52.465 55.678 52.465s55.676-23.411 55.676-52.465v-64.589h69.429c30.833 0 55.676-23.41 55.676-52.464s-24.843-52.464-55.676-52.464h-69.429v-65.214c0-29.054-24.843-52.464-55.676-52.464s-55.678 23.41-55.678 52.464v65.423h-69.429c-30.833 0-55.676 23.41-55.676 52.464 0 28.845 25.065 52.255 55.676 52.255zM815.782 85.661h-607.343c-11.977 0-22.403 8.986-22.403 21.111 0 11.287 9.538 21.111 22.403 21.111h606.233c11.979 0 22.405-8.988 22.405-21.111 0.222-12.125-9.316-21.111-21.295-21.111zM815.782 264.374h-607.343c-11.977 0-22.403 8.988-22.403 21.111 0 11.287 9.538 21.111 22.403 21.111h606.233c11.979 0 22.405-8.988 22.405-21.111 0.222-11.287-9.316-21.111-21.295-21.111zM651.857 683.882v234.732l250.213-234.941-250.213 0.209z" />
<glyph unicode="&#xe90d;" glyph-name="lic-moto" d="M249.791 401.659c62.756-9.559 114.329-14.399 153.285-14.401 0.008 0 0.012 0 0.016 0 47.291 0 65.497 7.013 72.434 12.898 1.961 1.658 3.269 3.889 3.716 6.335l22.042 120.192c0.465 2.544-0.029 5.163-1.397 7.4-2.797 4.573-9.344 15.281-76.26 26.124-39.875 6.463-90.374 11.225-142.196 13.408-4.649 0.183-8.944-2.192-11.016-6.093-14.251-26.835-37.151-82.77-30.438-155.908 0.465-5.051 4.51-9.151 9.815-9.956zM991.422 364.464c11.351 41.756 102.329 398.423-80.81 463.348-71.966 24.47-154.283 36.877-244.653 36.877-168.586 0-338.363-43.476-451.1-79.949-121.971-39.461-205.597-79.569-206.429-79.971-5.572-2.684-8.877-8.269-8.382-14.145s4.693-10.9 10.645-12.725l220.598-67.689c1.333-0.41 2.72-0.645 4.122-0.703 170.689-6.993 292.914-28.302 318.976-55.611 4.718-4.944 6.922-10.273 6.559-15.838l-0.132-0.971-31.888-173.954c-0.059-0.347-0.116-0.695-0.148-1.042-0.238-2.264-1.503-6.794-7.286-11.684-10.876-9.188-38.451-20.147-108.089-20.147-55.162 0-128.888 6.973-219.131 20.722-6.81 1.032-13.537-2.3-16.48-8.184l-70.367-140.629c-1.124-2.243-1.62-4.72-1.445-7.192 0.635-9.009 13.17-84.624 21.99-104.425 1.254-2.818 3.419-5.191 6.184-6.792l87.040-50.302c2.463-1.426 5.271-2.148 8.097-2.148 1.756 0 3.523 0.282 5.219 0.851l760.616 256.528c7.329 2.474 11.572 9.683 9.913 16.847l-13.621 58.927z" />
<glyph unicode="&#xe90e;" glyph-name="lic-truck" d="M929.847 123.030v157.903c0 33.928-29.188 61.434-65.193 61.434h-17.042v576.475c0 5.157-2.746 9.969-7.31 12.812l-41.382 25.774c-10.836 6.748-25.282-0.572-25.282-12.812v-185.143l-12.332 31.346c-16.585 42.158-59.258 70.137-106.975 70.137h-284.912c-47.996 0-90.858-28.304-107.238-70.815l-11.818-30.668v185.143c0 12.238-14.447 19.56-25.284 12.812l-41.382-25.772c-4.566-2.843-7.313-7.655-7.313-12.812v-576.476h-17.041c-36.005 0-65.193-27.504-65.193-61.434v-157.903h-27.775c-9.001 0-16.297-6.875-16.297-15.358v-84.904c0-8.48 7.296-15.358 16.297-15.358h70.312v-40.697c0-16.963 14.594-30.714 32.597-30.714h86.376c18.004 0 32.597 13.751 32.597 30.714v40.697h447.489v-40.697c0-16.963 14.595-30.714 32.595-30.714h86.378c18.004 0 32.597 13.751 32.597 30.714v40.697h70.311c9.003 0 16.298 6.878 16.298 15.358v84.902c0 8.482-7.295 15.358-16.298 15.358l-27.778 0.002zM271.956 673.922h480.086v-151.324h-480.086v151.324zM260.792 166.009h-55.678c-17.013 0-30.804 12.996-30.804 29.027v0.734c0 16.031 13.791 29.027 30.804 29.027h55.676c17.013 0 30.806-12.996 30.806-29.027v-0.734c0-16.031-13.791-29.027-30.804-29.027zM622.795 157.449h-221.594c-18.004 0-32.597 13.755-32.597 30.716v194.619c0 16.963 14.593 30.714 32.597 30.714h221.594c18.002 0 32.597-13.753 32.597-30.714v-194.616c0-16.963-14.595-30.718-32.597-30.718zM818.88 166.009h-55.676c-17.011 0-30.804 12.996-30.804 29.027v0.734c0 16.031 13.793 29.027 30.804 29.027h55.676c17.013 0 30.806-12.996 30.806-29.027v-0.734c0-16.031-13.793-29.027-30.806-29.027zM617.84 301.090h-212.204c-8.913 0-16.135 6.806-16.135 15.205v0.309c0 8.397 7.222 15.201 16.135 15.201h212.204c8.911 0 16.135-6.804 16.135-15.201v-0.309c0-8.399-7.224-15.205-16.135-15.205zM617.84 362.523h-212.204c-8.913 0-16.135 6.806-16.135 15.203v0.309c0 8.395 7.222 15.201 16.135 15.201h212.204c8.911 0 16.135-6.806 16.135-15.201v-0.309c0-8.397-7.224-15.203-16.135-15.203zM617.84 178.224h-212.204c-8.913 0-16.135 6.806-16.135 15.205v0.307c0 8.397 7.222 15.205 16.135 15.205h212.204c8.911 0 16.135-6.809 16.135-15.205v-0.307c0-8.399-7.224-15.205-16.135-15.205zM617.84 239.658h-212.204c-8.913 0-16.135 6.806-16.135 15.203v0.307c0 8.397 7.222 15.205 16.135 15.205h212.204c8.911 0 16.135-6.809 16.135-15.205v-0.307c0-8.397-7.224-15.203-16.135-15.203z" />
<glyph unicode="&#xe90f;" glyph-name="safe" d="M512 499.198c9.425 0 17.066 7.64 17.066 17.066s-7.64 17.066-17.066 17.066c-9.425 0-17.066-7.64-17.066-17.066s7.64-17.066 17.066-17.066zM711.806 370.942c-0.002 0.002-0.005 0.005-0.005 0.007h-0.009c-6.649 6.661-17.438 6.668-24.097 0.019-0.007-0.007-0.014-0.012-0.019-0.019l-132.762-132.75c-6.614-6.714-6.535-17.52 0.179-24.136 6.647-6.551 17.32-6.547 23.964 0.005l132.743 132.75c6.663 6.658 6.665 17.462 0.005 24.125zM529.066 599.875v-35.554c26.659-9.428 40.63-38.679 31.206-65.338-9.425-26.661-38.679-40.63-65.338-31.206-26.661 9.425-40.632 38.677-31.206 65.338 5.155 14.58 16.624 26.049 31.206 31.206v35.554c-46.178-9.428-75.967-54.505-66.539-100.68 8.113-39.727 43.059-68.259 83.605-68.261 47.127 0.002 85.332 38.209 85.329 85.336-0.002 40.548-28.537 75.494-68.264 83.605zM238.934 857.597v-750.933h546.134v750.933h-546.134zM278.070 784.329l34.132 34.134c6.723 6.604 17.527 6.506 24.131-0.218 6.519-6.638 6.519-17.276 0-23.914l-34.132-34.134c-6.723-6.604-17.529-6.506-24.131 0.218-6.521 6.638-6.521 17.276 0 23.914zM278.070 675.081c-6.521 6.637-6.521 17.275 0 23.915l119.466 119.466c6.723 6.604 17.527 6.506 24.131-0.218 6.519-6.638 6.519-17.276 0-23.914l-119.466-119.466c-6.723-6.605-17.529-6.509-24.131 0.216zM494.934 397.885c-65.301 9.425-110.599 70.007-101.174 135.308 7.566 52.424 48.749 93.608 101.174 101.174v1.364c0 9.425 7.64 17.066 17.066 17.066 9.428 0 17.066-7.64 17.066-17.066v-1.364c65.303-9.425 110.601-70.004 101.176-135.308-9.428-65.301-70.004-110.599-135.308-101.174zM735.933 322.672c-0.002-0.002-0.005-0.005-0.007-0.007l-132.734-132.734c-19.991-19.994-52.41-19.996-72.404-0.005-19.996 19.991-19.996 52.41-0.002 72.404l132.75 132.75c20.261 19.335 52.138 19.335 72.399 0h0.007c19.994-20.001 19.989-52.417-0.009-72.408zM836.266 960h-648.532c-28.264-0.030-51.17-22.936-51.2-51.2v-853.334c0.030-28.265 22.936-51.17 51.2-51.2v-17.066c0.030-28.265 22.936-51.17 51.2-51.2h17.066c28.265 0.030 51.17 22.935 51.2 51.2v17.066h426.666v-17.066c0.030-28.265 22.935-51.17 51.2-51.2h17.066c28.265 0.030 51.17 22.935 51.2 51.2v20.212c20.399 7.184 34.067 26.429 34.134 48.056v853.332c-0.030 28.264-22.935 51.17-51.2 51.2zM273.066-12.8c-0.009-9.421-7.643-17.059-17.066-17.066h-17.066c-9.422 0.009-17.058 7.645-17.066 17.066v17.066h51.2v-17.066h-0.002zM819.2-12.8c-0.009-9.421-7.645-17.059-17.066-17.066h-17.066c-9.423 0.009-17.059 7.645-17.066 17.066v17.066h51.2v-17.066h-0.002zM819.2 874.666v-785.066c0.002-9.423-7.633-17.064-17.059-17.066 0 0-0.005 0-0.007 0h-580.268c-9.424-0.002-17.064 7.633-17.066 17.059 0 0 0 0.005 0 0.007v785.066c-0.002 9.424 7.634 17.064 17.058 17.066 0.002 0 0.006 0 0.008 0h580.266c9.425 0.002 17.064-7.634 17.066-17.058 0.002-0.002 0.002-0.004 0.002-0.008z" />
<glyph unicode="&#xe910;" glyph-name="slap" d="M51.2 191.997h204.801v512.003h-204.801v102.4h256c13.579 0 26.602-5.395 36.204-14.997s14.996-22.624 14.996-36.204v-614.398c0-13.586-5.395-26.604-14.996-36.204-9.602-9.608-22.625-14.999-36.204-14.999h-256v102.397zM972.8 703.999h-204.801v-512.003h204.801v-102.397h-256c-13.579 0-26.602 5.392-36.204 14.999-9.601 9.6-14.996 22.618-14.996 36.204v614.398c0 13.579 5.395 26.602 14.996 36.204s22.625 14.997 36.204 14.997h256v-102.4zM665.6 959.999l-153.6-204.801-153.6 204.801h307.2zM665.6-64h-307.2l153.6 204.803 153.6-204.803z" />
<glyph unicode="&#xe911;" glyph-name="trade" d="M801.034 58.171h-578.066c-18.242 0-33.032 14.79-33.032 33.031v97.796c0 46.588 27.487 88.967 70.028 107.96 123.727 55.247 116.945 53.378 126.587 53.378h39.258c15.204 0 28.444-10.377 32.077-25.139 13.847-56.271 94.376-56.299 108.23 0 3.633 14.76 16.873 25.139 32.074 25.139 42.254 0 44.423 0.838 52.729-2.87l113.12-50.509c42.538-18.993 70.028-61.372 70.028-107.96v-97.796c-0.002-18.241-14.792-33.031-33.033-33.031zM512.808 837.83c-111.257 0-201.77-90.513-201.77-201.769 0-111.258 90.513-201.77 201.77-201.77s201.77 90.513 201.77 201.77c0 111.257-90.513 201.769-201.77 201.769zM194.515 622.015c-70.051 0-127.042-56.991-127.042-127.044 0-70.051 56.991-127.041 127.042-127.041 70.052 0 127.045 56.99 127.045 127.041-0.002 70.053-56.993 127.044-127.045 127.044zM829.487 622.015c-70.053 0-127.046-56.991-127.046-127.044 0-70.051 56.993-127.041 127.046-127.041 70.051 0 127.041 56.99 127.041 127.041 0 70.053-56.99 127.044-127.041 127.044zM976.31 319.401c-68.731 30.697-67.086 31.011-76.491 31.011-49.203 0-81.391 0.345-103.164 0.451-21.641 0.107-28.81-28.919-9.633-38.947 15.7-8.213 25.233-15.218 36.555-27.571 33.038-35.884 36.117-73.86 36.11-105.347-0.002-11.404 9.237-20.631 20.638-20.631h110.641c18.25 0 33.033 14.804 33.033 33.033v54.483c0 31.732-18.726 60.572-47.69 73.517zM124.181 350.412c-9.361 0-7.519-0.207-76.491-31.011-28.965-12.944-47.69-41.784-47.69-73.517v-54.483c0-18.229 14.782-33.031 33.032-33.031h110.634c11.409 0 20.653 9.242 20.639 20.647-0.037 31.598 2.95 69.304 36.119 105.33 11.266 12.293 20.878 19.361 36.232 27.427 19.135 10.052 12.065 38.991-9.551 38.954-21.902-0.037-54.086-0.317-102.924-0.317z" />
<glyph unicode="&#xe912;" glyph-name="user" d="M819.917 228.029l-163.291 81.51c-15.4 7.696-24.973 23.159-24.973 40.362v57.702c3.913 4.778 8.033 10.224 12.29 16.23 21.179 29.866 38.151 63.113 50.492 98.97 24.119 11.043 39.777 34.851 39.777 61.731v68.266c0 16.435-6.153 32.358-17.093 44.8v90.778c0.956 9.387 4.718 65.263-35.76 111.36-35.109 39.987-92.080 60.262-169.359 60.262s-134.25-20.275-169.359-60.245c-40.477-46.097-36.716-101.99-35.76-111.377v-90.778c-10.939-12.442-17.093-28.365-17.093-44.8v-68.266c0-20.771 9.452-40.141 25.588-53.061 15.658-61.901 48.424-108.544 59.877-123.511v-56.474c0-16.521-9.024-31.676-23.537-39.594l-152.487-83.046c-49.587-27.017-80.372-78.797-80.372-135.186v-55.261c0-80.998 257.167-102.4 393.143-102.4s393.143 21.402 393.143 102.4v51.933c0 58.675-32.666 111.446-85.226 137.695z" />
<glyph unicode="&#xe913;" glyph-name="drop" d="M144 32h112v-32h-112v32zM783.998 32h96.003v-32h-96.003v32zM64 128h896v-64h-896v64zM695.121 381.314c2.629 1.753 5.719 2.69 8.879 2.69s6.249-0.937 8.879-2.69l23.121-15.408v146.095h-64v-146.095l23.121 15.408zM544 160h320c4.244 0 8.312 1.687 11.315 4.686 3 3 4.686 7.072 4.686 11.315v320c0 4.241-1.687 8.312-4.686 11.312-3.003 3-7.072 4.686-11.315 4.686h-96v-176.002c0-2.894-0.786-5.737-2.274-8.222s-3.623-4.521-6.177-5.885c-2.554-1.367-5.433-2.015-8.325-1.876-2.894 0.142-5.695 1.066-8.105 2.671l-39.12 26.112-39.12-26.079c-2.406-1.605-5.204-2.53-8.096-2.671s-5.765 0.503-8.318 1.867c-2.554 1.361-4.689 3.391-6.18 5.873-1.491 2.479-2.28 5.319-2.286 8.21v176.002h-96c-4.244 0-8.312-1.687-11.315-4.686-3-3-4.686-7.072-4.686-11.312v-320c0-4.244 1.687-8.315 4.686-11.315 3.003-3 7.072-4.686 11.315-4.686v0zM311.121 381.314c2.629 1.753 5.719 2.69 8.879 2.69s6.249-0.937 8.879-2.69l23.121-15.408v146.095h-64v-146.095l23.121 15.408zM480 160c4.244 0 8.312 1.687 11.315 4.686 3 3 4.686 7.072 4.686 11.315v320c0 4.241-1.687 8.312-4.686 11.312-3.003 3-7.072 4.686-11.315 4.686h-96v-176.002c0-2.894-0.786-5.737-2.274-8.222s-3.623-4.521-6.177-5.885c-2.554-1.367-5.433-2.015-8.325-1.876-2.894 0.142-5.695 1.066-8.105 2.671l-39.12 26.112-39.12-26.079c-2.407-1.605-5.205-2.53-8.096-2.671s-5.765 0.503-8.318 1.867c-2.553 1.361-4.689 3.391-6.18 5.873-1.491 2.479-2.281 5.319-2.286 8.21v176.002h-96c-4.244 0-8.313-1.687-11.314-4.686s-4.686-7.072-4.686-11.312v-320c0-4.244 1.686-8.315 4.686-11.315s7.070-4.686 11.314-4.686h320zM483.765 896v-176c0-4.244-1.687-8.313-4.686-11.314s-7.072-4.686-11.315-4.686h-15.998l64-85.329 64 85.329h-15.998c-4.244 0-8.315 1.686-11.315 4.686s-4.686 7.070-4.686 11.314v176h-64z" />
<glyph unicode="&#xe914;" glyph-name="modifications" d="M1002.736 764.313l-111.944 140.442c-10.574 13.267-26.615 20.996-43.581 20.996h-578.578c-16.964 0-33.006-7.729-43.58-20.994l-111.942-140.443c-11.694-14.672-21.263-42.028-21.263-62.678v-102.873c8.892 13.988 21.887 24.488 37.471 29.86 0.872 11.756 4.436 23.157 10.531 33.537 10.56 17.988 27.499 30.778 47.69 36.030 7.238 1.891 13.866 2.747 20.492 2.747 26.696 0 50.887-13.58 65.052-34.913 4.218 0.734 8.475 1.115 12.748 1.115 13.109 0 25.494-3.602 36.286-9.813l62.005 16.127c7.771 2.028 15.755 3.047 23.757 3.047 42.885 0 80.372-29.007 91.177-70.55l121.52-467.049c6.34-24.365 2.803-49.74-9.936-71.458-12.747-21.718-33.198-37.159-57.566-43.5l-54.234-14.108h455.493c38.476 0 69.667 31.191 69.667 69.664l-0.003 624.022c0 18.763-9.567 46.118-21.261 60.791zM149.692 765.501l37.071 46.51h252.931l24.959 41.037h-245.179l27.369 34.337c5.317 6.671 13.26 10.498 21.79 10.498h578.578c8.534 0 16.475-3.827 21.791-10.498l27.37-34.337h-249.546l13.932-41.037h268.323l37.072-46.51h-816.461zM160.999 593.9l-15.636-4.067c-16.653-4.333-26.642-21.346-22.31-37.999l0.159-0.609c4.334-16.656 21.347-26.644 38.002-22.311l132.604 34.497c16.656 4.333 26.642 21.346 22.311 38.002l-0.161 0.609c-4.333 16.656-21.346 26.644-37.999 22.311l-15.636-4.067c-8.354-2.174-16.891 2.838-19.065 11.191l-0.134 0.509c-5.048 19.403-24.867 31.039-44.27 25.992l-0.812-0.211c-19.402-5.050-31.038-24.869-25.991-44.269l0.134-0.509c2.17-8.359-2.841-16.896-11.197-19.070zM203.741 637.539c8.411 2.188 17.005-2.858 19.192-11.267 2.189-8.411-2.856-17.004-11.269-19.193-8.411-2.186-17.003 2.858-19.192 11.267-2.187 8.411 2.858 17.007 11.269 19.193zM399.167 157.19c1.46-5.609-1.905-11.337-7.51-12.797l-192.918-50.185c-5.607-1.46-11.336 1.905-12.795 7.513l-2.642 10.149c-1.459 5.612 1.904 11.34 7.513 12.797l192.917 50.185c5.609 1.46 11.337-1.905 12.794-7.51l2.642-10.152zM422.695 358.441l2.642-10.152c1.46-5.609-1.905-11.337-7.513-12.794l-263.99-68.678c-5.609-1.46-11.336 1.905-12.795 7.51l-2.642 10.155c-1.459 5.609 1.904 11.334 7.513 12.791l263.991 68.678c5.609 1.46 11.337-1.902 12.794-7.51zM394.053 426.873l-263.991-68.675c-5.608-1.457-11.336 1.905-12.795 7.51l-2.642 10.155c-1.459 5.609 1.904 11.334 7.513 12.791l263.989 68.678c5.609 1.46 11.337-1.905 12.797-7.51l2.642-10.155c1.457-5.606-1.905-11.334-7.513-12.794zM388.19 241.058l-213.224-55.472c-5.609-1.457-11.336 1.908-12.795 7.513l-2.642 10.155c-1.459 5.609 1.904 11.334 7.513 12.794l213.223 55.466c5.609 1.46 11.337-1.905 12.794-7.51l2.642-10.152c1.463-5.609-1.902-11.337-7.51-12.794zM580.114 128.377l-121.505 467.061c-7.294 28.037-35.937 44.854-63.977 37.56l-61.914-16.109c1.463-3.022 2.68-6.214 3.558-9.585 7.396-28.438-9.351-56.964-37.18-64.205l-130.654-33.988c-26.671-6.94-55.388 6.794-64.341 32.859-1.686 4.909-2.598 9.842-2.859 14.702l-61.979-16.124c-28.038-7.294-44.853-35.937-37.56-63.974l121.504-467.061c7.295-28.040 35.937-44.857 63.975-37.56l355.375 92.45c28.037 7.294 44.851 35.934 37.557 63.974zM173.973 22.721l-105.656 406.139 355.373 92.45 105.656-406.139-355.373-92.45z" />
<glyph unicode="&#xe915;" glyph-name="store" d="M1018.242 626.555l-159.997 223.997c-6.4 8.32-16.002 13.44-26.242 13.44h-639.992c-10.24 0-19.84-5.12-26.24-13.44l-159.999-223.997c-1.92-5.762-3.84-11.52-5.76-17.282-0.64-71.038 56.959-129.277 127.999-129.277 38.4 0 72.319 16.64 95.999 43.52 23.68-26.88 57.599-43.52 95.998-43.52s72.318 16.64 96 43.52c23.678-26.88 57.6-43.52 96-43.52 38.397 0 72.318 16.64 95.997 43.52 23.682-26.88 57.6-43.52 96-43.52s72.318 16.64 96 43.52c23.678-26.88 57.597-43.52 95.997-43.52 71.042 0 128.638 58.238 128 129.277-1.922 5.762-3.84 11.52-5.762 17.282zM896 415.997c-33.985 0-67.072 9.090-96 25.856-57.856-33.473-134.144-33.473-191.997 0-57.856-33.473-134.207-33.473-192 0-57.79-33.473-134.206-33.473-191.997 0-48.064-27.904-107.583-31.488-159.998-13.375v-332.478c0-35.328 28.672-64 63.999-64h511.996v319.997h191.997v-319.997h64c35.328 0 64 28.672 64 64v331.71c-20.354-7.231-41.794-11.713-64-11.713zM448.003 160h-255.997v191.997h255.997v-191.997z" />
<glyph unicode="&#xe970;" glyph-name="key-2" d="M751.16 521.801l7.307 7.307c49.453 49.565 68.738 121.739 50.592 189.371-13.17 50.26-45.966 93.136-91.031 118.997-11.387 6.507-23.383 11.874-35.813 16.040l-8.909 30.106c-26.72 86.578-82.125 140.379-144.474 140.379-61.467 0-116.51-52.557-143.234-136.996-2.671-8.377-4.984-16.745-6.951-25.122-97.433-12.909-170.294-95.894-170.485-194.181-0.217-52.019 20.45-101.948 57.368-138.595l7.124-7.307-36.169-135.752 35.456-90.859-69.302-53.618 34.386-76.966-76.966-63.238-5.515-20.841 70.72-80.526 101.367 34.385 120.076 441.807 9.794 2.668c92.302 25.558 152.582 114.11 142.511 209.345-10.065 95.24-87.528 169.231-183.124 174.929 1.244 4.271 2.313 8.725 3.557 13.004 21.739 68.224 64.675 112.23 109.387 112.23 45.423 0 88.718-45.251 110.273-115.083l3.208-10.865c-24.537 2.775-49.381 0.905-73.225-5.524-7.445-1.984-14.761-4.419-21.911-7.307 31.072-24.513 55.401-56.506 70.728-92.989 32.133 0.818 62.205-15.797 78.61-43.441 16.414-27.645 16.598-61.997 0.488-89.823-11.674-20.564-31.124-35.587-53.977-41.683-7.62-2.003-15.465-3.021-23.338-3.027-0.539 0-1.253 0.172-1.783 0.172-15.309-36.491-39.65-68.494-70.728-92.988 7.192-2.976 14.577-5.472 22.094-7.481l9.978-2.852 36.159-135.569 76.252-60.753-33.141-81.053 68.232-49.706-34.915-93.169 5.524-20.844 101.367-34.385 70.728 80.526-118.293 441.274zM251.629 33.677l-34.203 9.264 119.893 441.274 34.205-9.264-119.895-441.274zM404.301 578.63c-7.873 0.042-15.712 1.060-23.332 3.027-47.414 12.933-75.505 61.708-62.892 109.201 7.204 26.383 26.115 47.992 51.305 58.613 0.358-4.628 0.539-9.081 0.898-14.075 9.436-54.523 30.193-106.473 60.925-152.486-8.707-2.768-17.772-4.21-26.904-4.28zM420.339 755.177c1.69-0.209 3.358-0.566 4.984-1.070l1.958-0.357c47.417-12.935 75.505-61.709 62.892-109.202-4.671-17.164-14.342-32.542-27.793-44.183-28.286 41.686-47.529 88.841-56.471 138.423-0.539 6.228-1.069 12.109-1.253 17.815 5.262 0.044 10.517-0.435 15.682-1.426zM782.692 35.631l-117.938 440.563 34.56 9.264 117.938-440.563-34.56-9.264z" />
</font>
</defs>
</svg>
